[Аудиоспектакль] Бостон Борис: Сказка про Егора-удальца, бывшего стрельца, а ноне народа отца [«L-Records»] [Алексей Борзунов, 2005, lossless, FLAC] 

Цитировать

Сказка про Егора-удальца, бывшего стрельца, а ноне народа отца
Год записи аудиоспектакля / издан на CD: 2005
Автор: Борис Бостон
Исполнитель: Алексей Борзунов
Жанр: Аудиоспектакль
Издатель, номер по каталогу: L-Records, без каталожного номера
Аудиокодек: FLAC
Тип рипа: image+.cue
Битрейт: lossless
Время звучания: 0:34:23
Производитель CD: Россия
Источник: ley-barmaley / lossless-galaxy
Сканирование: full scans (JPG, 450dpi)

EAC log

Exact Audio Copy V1.0 beta 3 from 29. August 2011
Отчёт EAC об извлечении, выполненном 27. февраля 2018, 9:00
Алексей Борзунов / Сказка про Егора-удальца, бывшего стрельца, а ноне народа отца
Дисковод: ASUS DRW-1814BL Adapter: 0 ID: 0
Режим чтения : ДостоверностьИспользование точного потока : ДаОтключение кэша аудио : ДаИспользование указателей C2 : Нет
Коррекция смещения при чтении : 6Способность читать области Lead-in и Lead-out : НетЗаполнение пропущенных сэмплов тишиной : ДаУдаление блоков с тишиной в начале и конце : НетПри вычислениях CRC использовались нулевые сэмплы : ДаИнтерфейс : Встроенный Win32-интерфейс для Win NT/2000
Выходной формат : Внутренние WAV-операцииФормат сэмплов : 44.100 Гц; 16 бит; стерео
TOC извлечённого CD
Трек | Старт | Длительность | Начальный сектор | Конечный сектор --------------------------------------------------------------------- 1 | 0:00.00 | 0:44.11 | 0 | 3310 2 | 0:44.11 | 0:50.28 | 3311 | 7088 3 | 1:34.39 | 16:01.67 | 7089 | 79230 4 | 17:36.31 | 1:23.34 | 79231 | 85489 5 | 18:59.65 | 15:23.25 | 85490 | 154739
Характеристики диапазона извлечения и сообщения об ошибках
Выбранный диапазон
Имя файла G:\ley-barmaley\музыкальные сказки на сайте lossless-galaxy.ru\Сказка про Егора-удальца.wav
Пиковый уровень 98.8 % Скорость извлечения 3.9 X Качество диапазона 100.0 % CRC теста 67594675 CRC копии 67594675 Копирование... OK
Ошибок не произошло
AccurateRip: сводка
Трек 1 отсутствует в базе данныхТрек 2 отсутствует в базе данныхТрек 3 отсутствует в базе данныхТрек 4 отсутствует в базе данныхТрек 5 отсутствует в базе данных
Ни одного трека нет в базе AccurateRip
Конец отчёта
---- CUETools DB Plugin V2.1.3
[CTDB TOCID: bm3hORCeZxYImYq8pyyhKzIaCy0-] disk not present in database, Submit result: bm3hORCeZxYImYq8pyyhKzIaCy0- has been uploaded
==== Контрольная сумма отчёта 29C73BA81D08788BFDF87A2CE4531C983E54154F4734168AD0BAEA15E204193D ====

Dynamic Range Meter


foobar2000 1.3.8 / Dynamic Range Meter 1.1.1log date: 2018-06-19 09:43:31
--------------------------------------------------------------------------------Analyzed: Алексей Борзунов / Сказка про Егора-удальца, бывшего стрельца, а ноне народа отца (L-Records)--------------------------------------------------------------------------------
DR Peak RMS Duration Track--------------------------------------------------------------------------------DR11 -0.10 dB -13.06 dB 0:44 01-Сказка про Егора-удальца, бывшего стрельца, а ноне народа отца. Трек 1. Действующие лицаDR11 -0.10 dB -11.96 dB 0:50 02-Сказка про Егора-удальца, бывшего стрельца, а ноне народа отца. Трек 2. Часть 1DR11 -0.10 dB -13.27 dB 16:02 03-Сказка про Егора-удальца, бывшего стрельца, а ноне народа отца. Трек 3. Часть 1. ПродолжениеDR11 -0.10 dB -13.15 dB 1:23 04-Сказка про Егора-удальца, бывшего стрельца, а ноне народа отца. Трек 4. Часть 2DR11 -0.10 dB -14.05 dB 15:23 05-Сказка про Егора-удальца, бывшего стрельца, а ноне народа отца. Трек 5. Часть 2. Продолжение--------------------------------------------------------------------------------
Number of tracks: 5Official DR value: DR11
Samplerate: 44100 HzChannels: 2Bits per sample: 16Bitrate: 674 kbpsCodec: FLAC================================================================================

auCDtect

-----------------------
DON'T MODIFY THIS FILE
-----------------------
PERFORMER: auCDtect Task Manager, ver. 1.6.0 RC1 build 1.6.0.1Copyright (c) 2008-2010 y-soft. All rights reservedhttp://y-soft.org
ANALYZER: auCDtect: CD records authenticity detector, version 0.8.2Copyright (c) 2004 Oleg Berngardt. All rights reserved.Copyright (c) 2004 Alexander Djourik. All rights reserved.
FILE: Сказка про Егора-удальца.flac Size: 173998530 Hash: A6E1463FF14E37012363116BFAEC255A Accuracy: -m0 Conclusion: CDDA 100% Signature: 572259142CB09FFD56C80587F286BF3361648177FILE: Сказка про Егора-удальца.wav Size: 363948524 Hash: A6E1463FF14E37012363116BFAEC255A Accuracy: -m0 Conclusion: CDDA 100% Signature: EC85A05CF4C741A8DFB68AD2661A84655A6C85E7

CD & matrix

mp3 ● 320
Другие аудиоспектакли
Вы можете начинать темы
Вы можете отвечать на сообщения
Вы не можете редактировать свои сообщения
Вы не можете удалять свои сообщения
Вы не можете голосовать в опросах
Вы не можете прикреплять файлы к сообщениям
Вы можете скачивать файлы